#TITLE:Robo's theme;
#SUBTITLE:Chrono Trigger;
#ARTIST:Yasunari Mitsuda;
#TITLETRANSLIT:;
#SUBTITLETRANSLIT:;
#ARTISTTRANSLIT:;
#CREDIT:;
#BANNER:Robo's Theme.png;
#BACKGROUND:Robo's Theme-bg.png;
#LYRICSPATH:;
#CDTITLE:cdtitle.png;
#MUSIC:Robo's Theme.mp3;
#OFFSET:1.459;
#SAMPLESTART:23.960;
#SAMPLELENGTH:12.000;
#SELECTABLE:YES;
#BPMS:0.000=115.670;
#STOPS:;
#BGCHANGES:;
// cache tags:
#FIRSTBEAT:4.000;
#LASTBEAT:116.000;
#SONGFILENAME:Songs/Music V.I.P ^_^/Robo's theme (Bursurk Lurk)/Robo's Theme.sm;
#HASMUSIC:1;
#HASBANNER:1;
#MUSICLENGTH:64.888;
// end cache tags

//---------------dance-single - Copied from Copied f----------------
#NOTES:
     dance-single:
     Copied from Copied f:
     Hard:
     11:
     1.000,0.916,1.000,0.046,0.871,338.000,162.000,3.000,0.000,0.000:
0000
0000
0000
0000
,
1001
0000
1000
0000
0110
0000
1001
0000
1001
0000
0001
0001
0110
0000
0200
0300
,
1001
0000
1000
0000
0110
0000
1001
0000
1001
0000
0100
0000
0110
0000
0200
0300
,
1001
0000
1000
0000
0110
0000
1001
0000
1001
0000
0001
0001
0110
0000
0020
0030
,
1001
0000
1000
0000
0110
0000
1001
0001
1001
0110
0001
0001
0110
0000
1010
1010
,
1001
0000
0010
1001
0110
0000
1001
0000
0110
0000
0100
1000
0101
0010
1001
0100
,
1010
0000
0001
0110
1001
0000
1010
0000
1001
0000
0010
0100
1010
0001
0100
0010
,
1100
0000
0001
1010
0101
0000
1010
0000
0011
0000
1000
0100
1010
0001
1100
0011
,
1000
0000
0010
0100
1010
0000
0001
0000
0011
0100
0010
1000
0101
0010
0001
1000
,
0110
0000
0001
1100
0011
0000
0110
0000
0101
0000
0010
0100
1010
0001
1100
0010
,
1001
0000
0010
0101
1010
0000
0011
0000
1100
0000
0001
0010
0101
1000
0010
0100
,
1010
0000
0001
1100
0011
0000
0110
0000
0101
0000
0010
0100
1001
0010
0100
0001
,
1100
0000
0010
1000
0101
0000
1000
0100
0011
0100
1000
0100
1001
0010
1000
0100
,
0011
0000
0100
1010
0101
0000
0110
0000
1100
0000
0011
1000
0011
1100
0010
1000
,
0101
0000
0010
1100
0011
0000
1100
0000
0101
0010
0001
1100
0011
0100
1010
0100
,
0011
0000
1010
0100
0011
0000
0110
0000
0011
0000
1000
0001
0110
1000
0001
1000
,
0100
0000
1010
0001
0110
0000
1100
0000
0110
1000
0010
1001
0110
1000
0001
0010
,
1100
0000
0001
1100
0011
0000
1100
0000
0110
0000
0001
0100
1001
0010
1100
0001
,
0110
0000
0100
1001
0110
0000
0011
0000
1100
0010
0100
0001
1100
0001
0110
1000
,
0110
0000
0100
1000
0100
0000
0100
1000
0110
0000
0010
0001
0010
0001
0010
0001
,
0110
0000
0100
1000
0100
0000
0100
1000
0100
0000
0100
1000
0100
1000
0100
1000
,
1001
0000
0010
1001
0110
0000
0011
0000
1100
0000
0001
0100
0011
1000
0101
0010
,
0101
0000
1000
0110
1001
0000
0110
0000
1001
0000
0100
0010
0101
0010
1000
0100
,
1010
0000
0001
1100
0011
0000
0110
0000
1100
0000
0001
0100
0011
1000
0001
0110
,
1001
0000
0001
0100
1010
0000
0100
0000
0011
0100
0001
1000
0011
0100
0001
0100
,
0011
0000
1000
0110
1001
0000
0110
0000
0101
0000
0001
1000
0011
1000
0110
0001
,
1010
0000
0010
1100
0011
0000
1100
0000
0011
0000
1000
0100
1010
0001
0010
0100
,
1001
0000
0010
0101
1010
0000
0101
0000
1100
0000
0010
0100
0011
1000
0001
0100
,
0011
0000
1000
0100
0011
0000
0100
1000
0011
1000
0100
0010
1000
0010
0100
0001
,
1001
0000
0000
0000
;
